<?xml version="1.0" standalone="no"?>
<!DOCTYPE svg PUBLIC "-//W3C//DTD SVG 1.1//EN" "http://www.w3.org/Graphics/SVG/1.1/DTD/svg11.dtd" >
<svg xmlns="http://www.w3.org/2000/svg">
<metadata>Generated by IcoMoon</metadata>
<defs>
<font id="icomoon" horiz-adv-x="1024">
<font-face units-per-em="1024" ascent="960" descent="-64" />
<missing-glyph horiz-adv-x="1024" />
<glyph unicode="&#x20;" horiz-adv-x="512" d="" />
<glyph unicode="&#xe900;" glyph-name="A" d="M832 64h-101.44l-72.576 210.24h-296.128l-68.416-210.24h-101.44l270.848 768h98.24l270.912-768zM629.504 361.024l-107.392 319.296c-3.392 10.176-7.040 28.096-11.008 53.504h-2.304c-3.392-23.168-7.232-40.96-11.456-53.504l-106.56-319.296h238.72z" />
<glyph unicode="&#xe901;" glyph-name="add" d="M848 486h-298v322h-76v-322h-298c-4.4 0-8-3.6-8-8v-60c0-4.4 3.6-8 8-8h298v-322h76v322h298c4.4 0 8 3.6 8 8v60c0 4.4-3.6 8-8 8z" />
<glyph unicode="&#xe902;" glyph-name="back" d="M724 741.7v77.3c0 6.7-7.7 10.4-12.9 6.3l-450.8-352.1c-16.4-12.8-16.4-37.5 0-50.3l450.8-352.1c5.3-4.1 12.9-0.4 12.9 6.3v77.3c0 4.9-2.3 9.6-6.1 12.6l-360 281 360 281.1c3.8 3 6.1 7.7 6.1 12.6z" />
<glyph unicode="&#xe903;" glyph-name="book" d="M841.322 872.911h-3.9l-296.309-80.78h-57.292l-297.244 81.066h-3.898c-47.329 0-85.833-38.504-85.833-85.834v-595.568c0-22.92 8.948-43.111 25.875-58.393 12.931-11.674 30.025-20.311 52.204-26.391 1.558-0.43 156.070-43.113 307.962-83.951 0.319-0.086 0.638-0.172 0.956-0.258h55.15c0.707 0.186 1.414 0.373 2.121 0.559 154.5 40.689 306.48 82.951 308.012 83.379l1.078 0.322c21.422 6.861 37.787 15.387 50.029 26.064 17.613 15.363 26.922 35.551 26.922 58.381v595.57c-0.001 47.328-38.505 85.834-85.833 85.834zM190.375 163.152c-35.303 9.676-35.303 22.967-35.303 28.643v595.568c0 14.134 10.678 25.822 24.39 27.421l303.424-82.752v-648.673c-146.655 39.502-290.952 79.362-292.511 79.793zM868.928 191.508c0-5.154 0-17.191-35.969-28.826-9.916-2.756-147.693-41.006-291.846-79.1v648.164l303.424 82.751c13.713-1.599 24.391-13.287 24.391-27.421v-595.568z" />
<glyph unicode="&#xe904;" glyph-name="book2" d="M742.4 38.4h-512c-14.131 0-25.6 11.469-25.6 25.6s11.469 25.6 25.6 25.6h512c14.131 0 25.6-11.469 25.6-25.6s-11.469-25.6-25.6-25.6zM844.8 806.4c-14.131 0-25.6-11.469-25.6-25.6v-768c0-14.131-11.469-25.6-25.6-25.6h-563.2c-42.342 0-76.8 34.458-76.8 76.8s34.458 76.8 76.8 76.8h460.8c42.342 0 76.8 34.458 76.8 76.8v614.4c0 42.342-34.458 76.8-76.8 76.8h-512c-42.342 0-76.8-34.458-76.8-76.8v-768c0-70.554 57.446-128 128-128h563.2c42.342 0 76.8 34.458 76.8 76.8v768c0 14.131-11.469 25.6-25.6 25.6zM179.2 857.6h512c14.131 0 25.6-11.469 25.6-25.6v-614.4c0-14.131-11.469-25.6-25.6-25.6h-460.8c-28.774 0-55.398-9.574-76.8-25.651v665.651c0 14.131 11.469 25.6 25.6 25.6z" />
<glyph unicode="&#xe905;" glyph-name="bookmark" d="M804.571 813.714h-585.143v-709.705l292.571 280.576 50.834-48.567 241.737-232.009v709.705zM811.447 886.857q13.166 0 25.161-5.12 18.871-7.461 29.989-23.406t11.118-35.401v-736.549q0-19.456-11.118-35.401t-29.989-23.406q-10.825-4.535-25.161-4.535-27.429 0-47.397 18.286l-251.977 242.322-251.977-242.322q-20.553-18.871-47.397-18.871-13.166 0-25.161 5.12-18.871 7.461-29.989 23.406t-11.118 35.401v736.549q0 19.456 11.118 35.401t29.989 23.406q11.995 5.12 25.161 5.12h598.821z" />
<glyph unicode="&#xe906;" glyph-name="bright" d="M512 256c106.039 0 192 85.961 192 192s-85.961 192-192 192v0c-106.039 0-192-85.961-192-192s85.961-192 192-192v0zM512 192c-141.385 0-256 114.615-256 256s114.615 256 256 256v0c141.385 0 256-114.615 256-256s-114.615-256-256-256v0zM32 480h128c17.673 0 32-14.327 32-32s-14.327-32-32-32v0h-128c-17.673 0-32 14.327-32 32s14.327 32 32 32v0zM864 480h128c17.673 0 32-14.327 32-32s-14.327-32-32-32v0h-128c-17.673 0-32 14.327-32 32s14.327 32 32 32v0zM480-32v128c0 17.673 14.327 32 32 32s32-14.327 32-32v0-128c0-17.673-14.327-32-32-32s-32 14.327-32 32v0zM480 800v128c0 17.673 14.327 32 32 32s32-14.327 32-32v0-128c0-17.673-14.327-32-32-32s-32 14.327-32 32v0zM828.8 85.973l-90.539 90.496c-6.021 5.826-9.758 13.98-9.758 23.007 0 17.673 14.327 32 32 32 9.037 0 17.2-3.746 23.019-9.771l90.505-90.462c5.564-5.75 8.993-13.595 8.993-22.242 0-17.673-14.327-32-32-32-8.636 0-16.473 3.421-22.229 8.981l0.009-0.009zM240.469 674.261l-90.496 90.539c-6.274 5.858-10.185 14.178-10.185 23.412 0 17.673 14.327 32 32 32 9.234 0 17.554-3.911 23.394-10.166l0.017-0.019 90.539-90.496c6.021-5.826 9.758-13.98 9.758-23.007 0-17.673-14.327-32-32-32-9.037 0-17.2 3.746-23.019 9.771l-0.009 0.009zM874.069 764.8l-90.539-90.539c-5.826-6.021-13.98-9.758-23.007-9.758-17.673 0-32 14.327-32 32 0 9.037 3.746 17.2 9.771 23.019l90.462 90.505c5.699 5.321 13.376 8.588 21.815 8.588 17.673 0 32-14.327 32-32 0-8.44-3.267-16.116-8.606-21.834l0.017 0.019zM285.653 176.469l-90.453-90.496c-5.75-5.564-13.595-8.993-22.242-8.993-17.673 0-32 14.327-32 32 0 8.636 3.421 16.473 8.981 22.229l90.487 90.53c5.826 6.021 13.98 9.758 23.007 9.758 17.673 0 32-14.327 32-32 0-9.037-3.746-17.2-9.771-23.019l-0.009-0.009z" />
<glyph unicode="&#xe907;" glyph-name="cart" d="M352.512 128c-35.36 0-64-28.64-64-64s28.64-64 64-64 64 28.64 64 64-28.64 64-64 64v0zM800.512 128c-35.36 0-64-28.64-64-64s28.64-64 64-64 64 28.64 64 64-28.64 64-64 64v0zM864 160h-519.776c-46.112 0-86.656 36.48-92.288 83.040l-54.272 382.080-30.88 178.56c-1.92 15.584-16.128 28.32-30.016 28.32h-40.768c-17.664 0-32 14.336-32 32s14.336 32 32 32h40.768c46.688 0 87.68-36.48 93.344-83.040l30.816-177.888 54.496-383.712c1.792-14.848 15.232-27.36 28.8-27.36h519.776c17.696 0 32-14.304 32-32s-14.304-32-32-32zM384.224 288c-16.608 0-30.656 12.8-31.872 29.664-1.312 17.632 11.936 32.96 29.536 34.24l434.112 32c15.936 0.096 29.376 12.608 31.136 26.848l50.4 288.384c1.28 10.752-1.696 22.528-8.128 29.824-4.128 4.672-9.312 7.040-15.36 7.040h-554.048c-17.664 0-32 14.336-32 32s14.336 32 32 32h554.048c24.448 0 46.912-10.144 63.264-28.608 18.688-21.088 27.264-50.816 23.52-81.632l-50.432-288.416c-5.44-44.864-45.952-81.344-92.064-81.344l-431.744-31.904c-0.8-0.064-1.6-0.096-2.368-0.096z" />
<glyph unicode="&#xe908;" glyph-name="check" d="M912 770h-69.9c-9.8 0-19.1-4.5-25.1-12.2l-412.3-522.3-197.7 250.5c-6.1 7.7-15.3 12.2-25.1 12.2h-69.9c-6.7 0-10.4-7.7-6.3-12.9l273.9-347c12.8-16.2 37.4-16.2 50.3 0l488.4 618.9c4.1 5.1 0.4 12.8-6.3 12.8z" />
<glyph unicode="&#xe909;" glyph-name="clock" d="M512 832c-247.424 0-448-200.576-448-448s200.576-448 448-448 448 200.576 448 448-200.576 448-448 448zM512 24c-198.824 0-360 161.178-360 360 0 198.824 161.176 360 360 360 198.822 0 360-161.176 360-360 0-198.822-161.178-360-360-360zM934.784 672.826c16.042 28.052 25.216 60.542 25.216 95.174 0 106.040-85.96 192-192 192-61.818 0-116.802-29.222-151.92-74.596 131.884-27.236 245.206-105.198 318.704-212.578zM407.92 885.404c-35.116 45.374-90.102 74.596-151.92 74.596-106.040 0-192-85.96-192-192 0-34.632 9.174-67.122 25.216-95.174 73.5 107.38 186.822 185.342 318.704 212.578zM448 640h64v-320h-64v320zM512 384h192v-64h-192v64z" />
<glyph unicode="&#xe90a;" glyph-name="close-circle-fill" d="M512 896c-247.4 0-448-200.6-448-448s200.6-448 448-448 448 200.6 448 448-200.6 448-448 448zM677.4 277.8l-66 0.3-99.4 118.5-99.3-118.4-66.1-0.3c-4.4 0-8 3.5-8 8 0 1.9 0.7 3.7 1.9 5.2l130.1 155-130.1 154.9c-1.2 1.5-1.9 3.3-1.9 5.2 0 4.4 3.6 8 8 8l66.1-0.3 99.3-118.5 99.3 118.4 66 0.3c4.4 0 8-3.5 8-8 0-1.9-0.7-3.7-1.9-5.2l-129.9-154.9 130-155c1.2-1.5 1.9-3.3 1.9-5.2 0-4.4-3.6-8-8-8z" />
<glyph unicode="&#xe90b;" glyph-name="close" d="M563.8 448l262.5 312.9c4.4 5.2 0.7 13.1-6.1 13.1h-79.8c-4.7 0-9.2-2.1-12.3-5.7l-216.5-258.1-216.5 258.1c-3 3.6-7.5 5.7-12.3 5.7h-79.8c-6.8 0-10.5-7.9-6.1-13.1l262.5-312.9-262.5-312.9c-4.4-5.2-0.7-13.1 6.1-13.1h79.8c4.7 0 9.2 2.1 12.3 5.7l216.5 258.1 216.5-258.1c3-3.6 7.5-5.7 12.3-5.7h79.8c6.8 0 10.5 7.9 6.1 13.1l-262.5 312.9z" />
<glyph unicode="&#xe90c;" glyph-name="cn" d="M870.791 198.036h-36.042v-72.082c0-39.812-32.269-72.085-72.085-72.085h-612.715c-39.815 0-72.089 32.272-72.089 72.085v504.59c0 39.812 32.272 72.085 72.089 72.085h36.038v72.089c0 39.812 32.272 72.082 72.085 72.082h612.718c39.812 0 72.085-32.269 72.085-72.082v-504.592c0-39.814-32.272-72.090-72.085-72.090zM149.95 666.59c-19.914 0-36.046-16.14-36.046-36.046v-504.589c0-19.905 16.132-36.046 36.046-36.046h612.715c19.905 0 36.038 16.14 36.038 36.046v504.589c0 19.905-16.132 36.046-36.038 36.046h-612.715zM906.838 774.717c0 19.905-16.135 36.038-36.046 36.038h-612.72c-19.902 0-36.038-16.132-36.038-36.038v-72.089h540.63c39.815 0 72.085-32.272 72.085-72.085v-396.461h36.042c19.91 0 36.046 16.135 36.046 36.042v504.593zM582.45 342.208h-72.089v-144.173h-108.123v144.173h-72.084v-36.046h-72.089v216.254h144.173v72.089h108.123v-72.089h144.173v-216.254h-72.085v36.046zM402.239 486.379h-72.084v-108.127h72.085v108.127zM582.45 486.379h-72.089v-108.127h72.089v108.127z" />
<glyph unicode="&#xe90d;" glyph-name="down" d="M822.625 438.623c-12.513 12.513-32.735 12.513-45.248 0l-233.376-233.376v562.753c0 17.665-14.336 32.001-32.001 32.001s-32.001-14.336-32.001-32.001v-562.753l-233.376 233.376c-12.513 12.513-32.735 12.513-45.248 0s-12.513-32.735 0-45.248l288.001-287.968c2.943-2.976 6.495-5.312 10.431-6.944 3.872-1.632 8.032-2.463 12.193-2.463 4.159 0 8.321 0.833 12.224 2.463 3.936 1.632 7.455 3.968 10.431 6.944l288.001 287.968c12.48 12.513 12.48 32.737-0.031 45.248z" />
<glyph unicode="&#xe90e;" glyph-name="down2" d="M890.335 629.089c-12.576 12.416-32.801 12.353-45.248-0.193l-327.839-330.848-332.416 329.439c-12.576 12.447-32.801 12.353-45.281-0.193-12.447-12.576-12.353-32.832 0.193-45.281l353.312-350.112c0.544-0.544 1.247-0.673 1.792-1.183 0.127-0.127 0.16-0.287 0.287-0.416 6.239-6.176 14.4-9.28 22.528-9.28 8.224 0 16.48 3.169 22.72 9.471l350.112 353.312c12.48 12.58 12.385 32.835-0.16 45.284z" />
<glyph unicode="&#xe90f;" glyph-name="download-remove" d="M894.816 445.024c-14.816 180.56-166.496 322.976-350.816 322.976-163.584 0-304.688-106.16-345.456-256h-6.544c-105.872 0-192-86.128-192-192s86.128-192 192-192h672c88.224 0 160 71.776 160 160 0 77.68-55.664 142.624-129.184 157.024zM864 192h-672c-70.576 0-128 57.424-128 128s57.424 128 128 128h32c0.002 0 0.005 0 0.008 0 15.58 0 28.559 11.134 31.415 25.879l0.032 0.201c25.024 133.232 146.384 229.92 288.544 229.92 158.8 0 288-129.2 288-288 0-17.673 14.327-32 32-32v0c52.944 0 96-43.056 96-96s-43.056-96-96-96zM630.624 502.624c-5.791 5.789-13.789 9.369-22.624 9.369s-16.833-3.58-22.624-9.369l-57.376-57.376-57.376 57.376c-5.827 6.027-13.985 9.769-23.017 9.769-17.673 0-32-14.327-32-32 0-9.032 3.742-17.19 9.76-23.009l57.385-57.385-57.376-57.376c-6.027-5.827-9.769-13.985-9.769-23.017 0-17.673 14.327-32 32-32 9.032 0 17.19 3.742 23.009 9.76l57.385 57.385 57.376-57.376c6.256-6.256 14.432-9.376 22.624-9.376s16.368 3.12 22.624 9.376c5.789 5.791 9.369 13.789 9.369 22.624s-3.58 16.833-9.369 22.624l-57.376 57.376 57.376 57.376c5.789 5.791 9.369 13.789 9.369 22.624s-3.58 16.833-9.369 22.624v0z" />
<glyph unicode="&#xe910;" glyph-name="download" d="M624 253.7h-74.1v242.3c0 4.4-3.6 8-8 8h-60c-4.4 0-8-3.6-8-8v-242.3h-73.9c-6.7 0-10.4-7.7-6.3-12.9l112-141.7c3.2-4.1 9.4-4.1 12.6 0l112 141.7c4.1 5.2 0.4 12.9-6.3 12.9zM811.4 593.3c-45.8 120.8-162.5 206.7-299.2 206.7s-253.4-85.8-299.2-206.6c-85.7-22.5-149-100.6-149-193.4 0-110.5 89.5-200 199.9-200h40.1c4.4 0 8 3.6 8 8v60c0 4.4-3.6 8-8 8h-40.1c-33.7 0-65.4 13.4-89 37.7-23.5 24.2-36 56.8-34.9 90.6 0.9 26.4 9.9 51.2 26.2 72.1 16.7 21.3 40.1 36.8 66.1 43.7l37.9 9.9 13.9 36.6c8.6 22.8 20.6 44.1 35.7 63.4 14.9 19.2 32.6 35.9 52.4 49.9 41.1 28.9 89.5 44.2 140 44.2s98.9-15.3 140-44.2c19.9-14 37.5-30.8 52.4-49.9 15.1-19.3 27.1-40.7 35.7-63.4l13.8-36.5 37.8-10c54.2-14.6 92.1-63.9 92.1-120.1 0-33.1-12.9-64.3-36.3-87.7s-54.5-36.3-87.6-36.3h-40.1c-4.4 0-8-3.6-8-8v-60c0-4.4 3.6-8 8-8h40.1c110.4 0 199.9 89.5 199.9 200 0 92.7-63.1 170.7-148.6 193.3z" />
<glyph unicode="&#xe911;" glyph-name="en" d="M874.749 199.771h-36.621v-73.245c0-40.455-32.801-73.249-73.249-73.249h-622.622c-40.448 0-73.241 32.793-73.241 73.249v512.738c0 40.455 32.793 73.249 73.241 73.249h36.627v73.252c0 40.455 32.793 73.245 73.252 73.245h622.611c40.46 0 73.252-32.789 73.252-73.245v-512.741c0-40.458-32.793-73.253-73.252-73.253zM142.257 675.892c-20.224 0-36.621-16.4-36.621-36.627v-512.738c0-20.227 16.397-36.627 36.621-36.627h622.622c20.224 0 36.621 16.4 36.621 36.627v512.738c0 20.227-16.397 36.627-36.621 36.627h-622.622zM911.374 785.765c0 20.227-16.397 36.621-36.624 36.621h-622.612c-20.23 0-36.627-16.394-36.627-36.621v-73.252h549.371c40.448 0 73.249-32.793 73.249-73.249v-402.864h36.621c20.227 0 36.624 16.397 36.624 36.624v512.743zM618.378 382.897c0 0 4.262 36.621-36.627 36.621-16.672 0-36.621-8.017-36.621-36.621v-146.498h-73.249v219.746c0 0 69.371 0 146.498 0-2.187 0 73.249 4.516 73.249-73.249v-146.498h-73.249v146.499zM215.51 566.018h219.747v-36.627h-146.498v-109.873h109.87v-36.621h-109.87v-109.873h146.498v-36.624h-219.747v329.619z" />
<glyph unicode="&#xe912;" glyph-name="forward" d="M765.7 473.2l-450.8 352.1c-5.3 4.1-12.9 0.4-12.9-6.3v-77.3c0-4.9 2.3-9.6 6.1-12.6l360-281.1-360-281.1c-3.9-3-6.1-7.7-6.1-12.6v-77.3c0-6.7 7.7-10.4 12.9-6.3l450.8 352.1c16.4 12.8 16.4 37.6 0 50.4z" />
<glyph unicode="&#xe913;" glyph-name="headphone" d="M288.004 384.012h-63.999v-447.991h63.999c17.592 0 32.010 14.397 32.010 32.010v383.992c0 17.592-14.397 32.010-32.010 32.010zM735.996 384.012c-17.592 0-32.010-14.397-32.010-32.010v-383.992c0-17.592 14.397-32.010 32.010-32.010h63.999v447.991h-63.999zM1023.98 448.010c0 282.762-229.228 511.99-511.99 511.99s-511.99-229.228-511.99-511.99c0-61.418 10.834-120.297 30.658-174.834-19.476-33.197-30.658-71.863-30.658-113.15 0-112.843 83.454-206.189 191.996-221.712v443.404c-31.907-4.567-61.664-15.851-87.755-32.378-5.386 26.726-8.253 54.353-8.253 82.676 0 229.74 186.241 416.002 416.002 416.002s416.002-186.241 416.002-416.002c0-28.323-2.826-55.971-8.212-82.697-26.091 16.548-55.848 27.852-87.776 32.419v-443.424c108.542 15.524 191.996 108.87 191.996 221.712 0 41.266-11.182 79.932-30.637 113.129 19.824 54.558 30.637 113.457 30.637 174.855z" />
<glyph unicode="&#xe914;" glyph-name="menu" d="M133.311 663.448h757.206c19.782 0 35.951 16.169 35.951 35.951s-15.997 35.951-35.951 35.951h-757.206c-19.782 0-35.951-16.169-35.951-35.951s16.169-35.951 35.951-35.951zM890.517 483.865h-757.206c-19.782 0-35.951-16.169-35.951-35.951s16.169-35.951 35.951-35.951h757.206c19.782 0 35.951 16.169 35.951 35.951s-16.169 35.951-35.951 35.951zM890.517 232.552h-757.206c-19.782 0-35.951-15.997-35.951-35.951s16.169-35.951 35.951-35.951h757.206c19.782 0 35.951 15.997 35.951 35.951s-16.169 35.951-35.951 35.951z" />
<glyph unicode="&#xe915;" glyph-name="more" d="M415.93 736.21c0 52.98 43.004 95.984 95.984 95.984s95.984-43.004 95.984-95.984-43.004-95.984-95.984-95.984-95.984 43.004-95.984 95.984zM415.93 448.258c0 52.98 43.004 95.984 95.984 95.984s95.984-43.004 95.984-95.984-43.004-95.984-95.984-95.984-95.984 43.004-95.984 95.984zM415.93 160.134c0 52.98 43.004 95.984 95.984 95.984s95.984-43.004 95.984-95.984-43.004-95.984-95.984-95.984-95.984 43.176-95.984 95.984z" />
<glyph unicode="&#xe916;" glyph-name="move" d="M840.704 704c-3.456 0-13.056 0-36.992 0-82.624 0-82.496 128-140.864 128-86.080 0-233.984 0-314.432 0-17.088 0-29.056 0-37.184 0-65.792 0-119.232-53.44-119.232-119.296v-136.704h64v136.704c0 30.464 24.832 55.296 55.232 55.296h339.456c3.968-6.144 9.024-15.36 12.672-22.208 21.44-39.552 57.344-105.792 140.352-105.792h36.992c28.416 0 55.296-31.104 55.296-64v-392.768c0-30.4-24.832-55.232-55.296-55.232h-529.472c-30.4 0-55.232 24.832-55.232 55.232v72.768h-64v-72.768c0-65.856 53.44-119.232 119.232-119.232h529.408c65.92 0 119.36 53.376 119.36 119.232v392.768c0 65.856-53.44 128-119.296 128zM497.344 266.176l133.056 129.856c0.128 0.128 0.192 0.32 0.32 0.512 2.816 2.816 5.184 9.536 6.784 13.248 1.344 3.456 1.856 0.64 2.112 4.096 0 0.768 0.384 1.408 0.384 2.112 0 0.512-0.256 0.896-0.256 1.344-0.192 3.84-0.896 5.76-2.24 9.344-1.344 3.264-3.52 6.016-5.76 8.64-0.512 0.64-0.768 1.536-1.344 2.112l-133.056 132.928c-12.8 12.864-33.6 6.976-46.4-5.888-12.864-12.8-12.864-33.6 0-46.464l76.864-70.976-429.632-0.064c-18.752 0-33.984-12.8-33.92-30.912-0.064-18.112 15.168-29.696 33.984-29.696h429.632l-76.864-79.552c-12.864-12.864-12.864-33.6 0-46.528 6.4-6.4 14.72-3.776 23.168-3.776s16.832 3.328 23.168 9.664z" />
<glyph unicode="&#xe917;" glyph-name="person" horiz-adv-x="1025" d="M509.478 895.999c86.090 0 144.558-29.44 173.733-87.505 24.382-48.56 24.382-107.249 24.382-159.001 0-67.121-33.712-147.281-92.562-219.874l-37.318-46.096 42.977-40.84c19.471-18.44 61.708-41.256 137.967-79.569 71.412-35.872 119.985-61.152 143.189-84.497 40.9-41.096 52.808-118.001 53.366-156.969 0.096-5.688-2.117-11.248-6.066-15.28-4.044-4.136-9.425-6.384-15.14-6.384h-849.105c-5.636 0-11.168 2.312-15.117 6.384-3.948 4.032-6.169 9.592-6.113 15.248 0.183 10.744 3.128 106.473 53.366 157.001 23.204 23.312 71.786 48.552 143.189 84.497 76.227 38.248 118.496 61.104 137.967 79.633l42.977 40.816-37.318 46.064c-58.779 72.561-92.53 152.721-92.53 219.874 0 51.752 0 110.441 24.382 159.001 29.214 58.056 87.627 87.497 173.773 87.497v0zM509.478 960c-139.671 0-202.493-66.689-230.585-122.665-31.228-62.152-31.228-131.841-31.228-187.841 0-82.561 39.188-176.809 106.803-260.282-16.175-15.352-82.731-48.792-122.723-68.841-79.308-39.872-129.633-66.249-159.723-96.505-66.635-66.961-71.674-179.369-72.001-201.242-0.374-22.824 8.414-44.872 24.382-61.192 15.952-16.24 37.756-25.432 60.498-25.432h849.113c22.758 0 44.538 9.184 60.49 25.432 15.96 16.32 24.756 38.376 24.414 61.224-0.342 21.84-5.413 134.249-72.032 201.21-30.042 30.256-80.399 56.632-159.731 96.505-39.992 20.056-106.556 53.496-122.699 68.841 67.583 83.473 106.803 177.721 106.803 260.282 0 56 0 125.689-31.196 187.841-28.108 55.976-90.938 122.665-230.585 122.665v0 0z" />
<glyph unicode="&#xe918;" glyph-name="play_backward" d="M814.976 737.696c-10.432 5.504-23.168 4.832-32.96-1.824l-206.016-140.16v113.696c0 11.872-6.56 22.72-17.024 28.288-10.432 5.504-23.168 4.832-32.96-1.824l-384-261.248c-8.768-5.952-14.016-15.872-14.016-26.464s5.248-20.512 14.016-26.464l384-261.376c5.408-3.68 11.68-5.568 17.984-5.568 5.12 0 10.272 1.216 14.976 3.712 10.464 5.536 17.024 16.448 17.024 28.288v113.792l206.016-140.224c5.408-3.68 11.68-5.568 17.984-5.568 5.12 0 10.272 1.216 14.976 3.712 10.464 5.536 17.024 16.448 17.024 28.288v522.656c0 11.872-6.56 22.72-17.024 28.288z" />
<glyph unicode="&#xe919;" glyph-name="play_forward" d="M881.984 474.464l-384 261.408c-5.032 3.446-11.252 5.503-17.952 5.503-17.668 0-31.995-14.304-32.032-31.964v-113.796l-206.016 140.256c-5.032 3.446-11.252 5.503-17.952 5.503-17.668 0-31.995-14.304-32.032-31.964v-522.66c0.037-17.663 14.364-31.967 32.032-31.967 6.7 0 12.92 2.057 18.062 5.574l-0.11-0.071 206.016 140.16v-113.696c0.037-17.663 14.364-31.967 32.032-31.967 6.7 0 12.92 2.057 18.062 5.574l-0.11-0.071 384 261.28c8.532 5.814 14.061 15.485 14.061 26.448s-5.529 20.634-13.951 26.377l-0.11 0.071z" />
<glyph unicode="&#xe91a;" glyph-name="play_go" d="M512 896c-247.4 0-448-200.6-448-448s200.6-448 448-448 448 200.6 448 448-200.6 448-448 448zM656.1 441.1l-218.4-158.9c-1.4-1-3-1.5-4.7-1.5-4.4 0-8 3.6-8 8v317.6c0 1.7 0.5 3.3 1.5 4.7 2.6 3.6 7.6 4.4 11.2 1.8l218.4-158.8c0.7-0.5 1.3-1.1 1.8-1.8 2.6-3.5 1.8-8.5-1.8-11.1z" />
<glyph unicode="&#xe91b;" glyph-name="play_pause" d="M512 896c-247.4 0-448-200.6-448-448s200.6-448 448-448 448 200.6 448 448-200.6 448-448 448zM432 296c0-4.4-3.6-8-8-8h-48c-4.4 0-8 3.6-8 8v304c0 4.4 3.6 8 8 8h48c4.4 0 8-3.6 8-8v-304zM656 296c0-4.4-3.6-8-8-8h-48c-4.4 0-8 3.6-8 8v304c0 4.4 3.6 8 8 8h48c4.4 0 8-3.6 8-8v-304z" />
<glyph unicode="&#xe91c;" glyph-name="private-see" d="M876.448 735.072h-729.536c-45.28 0-82.112-37.696-82.112-84.032v-439.904c0-46.336 37.344-84.064 83.264-84.064h199.296c33.888 0 64.096 20.48 77.056 52.32l57.888 144.896c5.152 12.672 17.152 20.832 30.56 20.832 13.376 0 25.344-8.192 30.4-20.672l58.016-145.28c12.672-31.2 43.232-52.128 75.968-52.128h199.232c46.496 0 84.352 37.728 84.352 84.064v439.936c-0.064 46.304-37.888 84.032-84.384 84.032zM896.768 211.136c0-11.264-8.928-20.064-20.352-20.064h-199.232c-6.88 0-13.76 5.024-16.608 12.064l-58.016 145.28c-15.040 36.864-50.24 60.704-89.792 60.704s-74.816-23.84-89.92-60.896l-57.888-144.896c-3.040-7.424-9.984-12.256-17.696-12.256h-199.232c-10.624 0-19.264 8.992-19.264 20.064v439.904c0 10.656 8.48 20.032 18.112 20.032h729.536c11.392 0 20.352-8.8 20.352-20.032v-439.904zM642.432 463.936c0-44.183 35.817-80 80-80s80 35.817 80 80v0c0 44.183-35.817 80-80 80s-80-35.817-80-80v0zM223.936 463.936c0-44.183 35.817-80 80-80s80 35.817 80 80v0c0 44.183-35.817 80-80 80s-80-35.817-80-80v0z" />
<glyph unicode="&#xe91d;" glyph-name="private" d="M876.384 735.072h-729.536c-45.28 0-82.112-37.696-82.112-84.032v-439.904c0-46.336 37.344-84.064 83.264-84.064h199.296c33.888 0 64.096 20.48 77.056 52.32l57.888 144.896c5.152 12.672 17.152 20.832 30.56 20.832 13.376 0 25.344-8.192 30.4-20.672l58.016-145.28c12.672-31.2 43.232-52.128 75.968-52.128h199.232c46.496 0 84.352 37.728 84.352 84.064v439.936c-0.064 46.304-37.888 84.032-84.384 84.032zM307.072 351.936c-61.76 0-112 50.24-112 112s50.24 112 112 112 112-50.24 112-112c0-61.76-50.24-112-112-112zM722.368 351.936c-61.76 0-112 50.24-112 112s50.24 112 112 112 112-50.24 112-112c0-61.76-50.24-112-112-112z" />
<glyph unicode="&#xe91e;" glyph-name="progress" d="M514.688 740.288c-167.895 0-304-136.105-304-304s136.105-304 304-304v0c167.895 0 304 136.105 304 304s-136.105 304-304 304v0zM514.688 186.944c-139.9 0-253.312 113.412-253.312 253.312s113.412 253.312 253.312 253.312v0c139.9 0 253.312-113.412 253.312-253.312s-113.412-253.312-253.312-253.312v0zM0 461.632h189.312v-50.752h-189.312zM834.688 461.632h189.312v-50.752h-189.312z" />
<glyph unicode="&#xe91f;" glyph-name="pull_down" d="M894.944 479.040c-9.248 24.864-36.864 37.472-61.728 28.224l-321.472-119.776-318.208 121.248c-24.768 9.504-52.512-3.008-61.952-27.776s3.008-52.512 27.776-61.952l334.080-127.232c1.536-0.608 3.104-0.448 4.64-0.832 0.864-0.288 1.824-0.288 2.72-0.512 3.232-0.672 6.464-1.824 9.696-1.824 0.352 0 0.672 0.16 1.056 0.16 0.352 0 0.672-0.16 1.024-0.16 3.456 0 6.944 1.088 10.432 1.888 0.576 0.192 1.216 0.16 1.792 0.352 1.504 0.416 3.040 0.256 4.512 0.8l337.376 125.632c24.864 9.28 37.504 36.896 28.256 61.76z" />
<glyph unicode="&#xe920;" glyph-name="search" horiz-adv-x="1025" d="M786.527 218.645c68.169 78.597 109.424 181.171 109.424 293.379 0 247.41-200.566 447.976-447.976 447.976s-447.976-200.565-447.976-447.976c0-247.41 200.566-447.976 447.976-447.976 112.168 0 214.707 41.225 293.293 109.35l228.045-228.045c12.37-12.37 32.812-12.552 45.308-0.056 12.583 12.583 12.471 32.781-0.056 45.308l-228.040 228.040zM447.976 128.045c-212.066 0-383.979 171.913-383.979 383.979s171.913 383.979 383.979 383.979c212.066 0 383.979-171.913 383.979-383.979s-171.913-383.979-383.979-383.979v0 0 0 0 0 0z" />
<glyph unicode="&#xe921;" glyph-name="selected" d="M512 896c-247.4 0-448-200.6-448-448s200.6-448 448-448 448 200.6 448 448-200.6 448-448 448zM705.5 594.3l-210.6-292c-12.7-17.7-39-17.7-51.7 0l-124.7 172.8c-3.8 5.3 0 12.7 6.5 12.7h46.9c10.2 0 19.9-4.9 25.9-13.3l71.2-98.8 157.2 218c6 8.3 15.6 13.3 25.9 13.3h46.9c6.5 0 10.3-7.4 6.5-12.7z" />
<glyph unicode="&#xe922;" glyph-name="settings" d="M64 208h566.7c12.372 28.224 40.562 48 73.3 48s60.93-19.776 73.3-48h182.7v-64h-182.7c-12.372-28.224-40.562-48-73.3-48s-60.93 19.776-73.3 48h-566.7zM64 480h182.7c12.372 28.224 40.562 48 73.3 48s60.93-19.776 73.3-48h566.7v-64h-566.7c-12.372-28.224-40.562-48-73.3-48s-60.93 19.776-73.3 48h-182.7zM64 752h566.7c12.372 28.224 40.562 48 73.3 48s60.93-19.776 73.3-48h182.7v-64h-182.7c-12.372-28.224-40.562-48-73.3-48s-60.93 19.776-73.3 48h-566.7z" />
<glyph unicode="&#xe923;" glyph-name="shake" d="M324 294c0-26.51 21.49-48 48-48s48 21.49 48 48v0c0 26.51-21.49 48-48 48s-48-21.49-48-48v0zM940.7 603.6l-273.1 273.2c-12.4 12.3-28.9 19.2-46.5 19.2s-34.1-6.8-46.5-19.2l-491.3-491.3c-25.7-25.7-25.7-67.4 0-93.1l273.2-273.2c12.3-12.3 28.9-19.2 46.5-19.2s34.1 6.8 46.5 19.2l491.3 491.3c25.6 25.7 25.6 67.5-0.1 93.1zM403 79.9l-259.1 259.1 477.2 477.2 259-259.2-477.1-477.1zM152.8 586.3c3.1-3.1 8.1-3.1 11.2 0l209.7 209.7c3.1 3.1 3.1 8.1 0 11.2l-38.4 38.4c-3.1 3.1-8.1 3.1-11.2 0l-209.8-209.5c-3.1-3.1-3.1-8.1 0-11.2l38.5-38.6zM871.4 309.7c-3.1 3.1-8.1 3.1-11.2 0l-209.9-209.8c-3.1-3.1-3.1-8.1 0-11.2l38.4-38.4c3.1-3.1 8.1-3.1 11.2 0l209.8 209.7c3.1 3.1 3.1 8.1 0 11.2l-38.3 38.5z" />
<glyph unicode="&#xe924;" glyph-name="share" d="M921.6 568.209c-15.583 0-28.939-13.357-28.939-28.939v-451.896h-756.87v451.896c0 15.583-13.357 28.939-28.939 28.939s-28.939-13.357-28.939-28.939v-480.835c0-15.583 13.357-28.939 28.939-28.939h816.974c15.583 0 28.939 13.357 28.939 28.939v480.835c-2.226 15.583-15.583 28.939-31.165 28.939zM338.365 641.67c6.678 0 15.583 2.226 20.035 8.904l126.887 122.435v-311.652c0-15.583 13.357-28.939 28.939-28.939s28.939 13.357 28.939 28.939v311.652l126.887-122.435c6.678-4.452 13.357-8.904 20.035-8.904s15.583 2.226 20.035 8.904c11.13 11.13 11.13 28.939 0 40.070l-175.861 171.409c-4.452 4.452-11.13 6.678-17.809 6.678 0 0-2.226 0-2.226 0s-2.226 0-2.226 0c-6.678 0-13.357-2.226-17.809-6.678l-175.861-169.183c-11.13-11.13-11.13-28.939 0-40.070 4.452-8.904 13.357-11.13 20.035-11.13z" />
<glyph unicode="&#xe925;" glyph-name="shelf" d="M921.6 505.344h-698.368c-83.968 0-151.552 75.776-151.552 167.936s67.584 167.936 151.552 167.936h698.368c16.384 0 30.72-14.336 30.72-30.72v-6.144c0-12.288-8.192-24.576-20.48-28.672-40.96-14.336-69.632-53.248-69.632-100.352 0-45.056 28.672-88.064 69.632-100.352 12.288-4.096 20.48-16.384 20.48-28.672v-6.144c0-22.528-14.336-34.816-30.72-34.816zM223.232 777.728c-49.152 0-90.112-47.104-90.112-106.496s40.96-106.496 90.112-106.496h612.352c-22.528 28.672-34.816 65.536-34.816 106.496 0 38.912 12.288 75.776 34.816 106.496h-612.352zM800.768 56.832h-698.368c-16.384 0-30.72 14.336-30.72 30.72v6.144c0 14.336 8.192 24.576 20.48 28.672 40.96 14.336 69.632 55.296 69.632 100.352 0 47.104-28.672 88.064-69.632 100.352-12.288 4.096-20.48 16.384-20.48 28.672v6.144c0 16.384 14.336 30.72 30.72 30.72h698.368c83.968 0 151.552-75.776 151.552-167.936s-67.584-163.84-151.552-163.84zM188.416 118.272h612.352c49.152 0 90.112 47.104 90.112 106.496s-40.96 106.496-90.112 106.496h-612.352c22.528-28.672 34.816-65.536 34.816-106.496 0-38.912-12.288-75.776-34.816-106.496z" />
<glyph unicode="&#xe926;" glyph-name="speak" d="M438.279 85.109h-248.225v48.131h200.094v77.439l-92.539 65.993c-8.011 5.782-13.198 15.045-13.325 25.527v0.020c-0.105 10.13 4.677 19.789 12.785 25.828l93.079 69.424v104.701l74.595 5.923-160.953 298.049 42.351 22.89 196.063-363.102-103.925-8.225v-68.413c0-9.988-4.771-19.506-12.762-25.476l-81.716-60.963 81.151-57.862c8.367-5.994 13.325-15.652 13.325-25.875v-134.008zM173.559 677.619c0-24.294 19.694-43.988 43.988-43.988s43.988 19.694 43.988 43.988v0c0 24.294-19.694 43.988-43.988 43.988s-43.988-19.694-43.988-43.988v0zM554.742 228.847c-10.54 0-20.211 6.98-23.173 17.626-3.56 12.809 3.937 26.064 16.733 29.636 12.151 3.361 20.635 14.524 20.635 27.144 0 12.503-8.015 23.338-19.941 26.957-12.726 3.877-19.894 17.32-16.040 30.035 3.877 12.738 17.38 19.859 30.024 16.028 32.35-9.847 54.089-39.177 54.089-73.020 0-34.148-22.973-64.371-55.863-73.537-2.162-0.588-4.337-0.87-6.463-0.87zM625.635 139.469c-8.66 0-17.016 4.677-21.328 12.879-6.181 11.751-1.657 26.298 10.106 32.48 44.301 23.29 71.822 68.813 71.822 118.802 0 49.189-26.886 94.36-70.153 117.885-11.68 6.346-16.005 20.963-9.648 32.643 6.346 11.68 20.94 15.981 32.632 9.659 58.778-31.962 95.299-93.349 95.299-160.188 0-67.92-37.379-129.777-97.556-161.387-3.238-1.745-7.087-2.771-11.175-2.773h-0.001zM697.727 66.966c-8.66 0-17.016 4.677-21.328 12.879-6.181 11.751-1.657 26.299 10.106 32.48 71.434 37.556 115.804 110.976 115.804 191.586 0 79.342-43.349 152.174-113.114 190.106-11.68 6.369-16.005 20.963-9.648 32.643 6.346 11.704 20.963 15.981 32.632 9.659 85.287-46.369 138.261-135.417 138.261-232.409 0-98.567-54.23-188.297-141.54-234.171-3.238-1.745-7.086-2.771-11.174-2.773h-0.001z" />
<glyph unicode="&#xe927;" glyph-name="up" d="M887.328 342.848l-353.377 350.145c-0.513 0.513-1.216 0.673-1.76 1.153-0.127 0.127-0.16 0.32-0.287 0.447-12.576 12.416-32.832 12.353-45.281-0.193l-350.112-353.344c-12.447-12.576-12.353-32.801 0.193-45.248 6.239-6.176 14.4-9.28 22.528-9.28 8.224 0 16.48 3.169 22.72 9.471l327.841 330.817 332.48-329.408c6.239-6.176 14.369-9.28 22.528-9.28 8.255 0 16.48 3.169 22.72 9.471 12.447 12.545 12.351 32.802-0.193 45.25z" />
</font>
</defs>
</svg>
